Making of A Cue-File

Dag allemaal,

hier ben ik dan weer met een DJ vraag.

Situatie: DJ’s mixen → maken liveset → maken cue-file → zetten mp3 en cue-file in rar bestand → uploaden → mensen downloaden rar bestand → cutten de mp3 met bijgevoegde cue file

Probleem: Hoe maak je een Cue-File ?

Alvast bedankt jongens !

Verander de .cue in .txt en je kan het in text edit maken. Kijk naar een bestaande om de structuur te zien. Automatisch genereren van een .cue file dat weet ik niet.

Maar het is dus een text bestand met .cue extensie.

[quote:283fe79e58="PietjePuk"]Verander de .cue in .txt en je kan het in text edit maken. Kijk naar een bestaande om de structuur te zien. Automatisch genereren van een .cue file dat weet ik niet.

Maar het is dus een text bestand met .cue extensie.[/quote:283fe79e58]

Ik geloof ik heb me verkeerd uitgedrukt.

Ik vroeg me af hoe ik een Cue-File maken kan.

Dus bevoorbeeld mix ik 3 liedjes, song A, song B en song C.
Uiteindelijk krijg ik dus song D waar alle 3 songs in zijn.

Nu, hoe kan ik song D knippen, op de laatste waar song A stopt en song B begint, en daar dan een Cue-File van maken ?

Je hebt je wel goed uitgedrukt maar je leest niet goed denk ik...

Een cue file is niets anders dan een .txt bestand wat hernoemd is naar .cue.
Hierin kun je gewoon de begin en eindtijd van een nummer inzetten.

Open maar eens een .cue bestand met de teksteditor, dan krijg je dus zoiets:

[i:30d9130ee6]PERFORMER “VA”
TITLE “Eins Mixed By Chris Tietjen”
FILE “01-va_-_eins_mixed_by_chris_tietjen.mp3” MP3
TRACK 01 AUDIO
TITLE “Dream Machine”
PERFORMER “Jacek Sienkiewicz”
INDEX 01 00:00:00
TRACK 02 AUDIO
TITLE “Drogenkontrolle”
PERFORMER “Glove”
FLAGS DCP
INDEX 00 10:53:53
INDEX 01 10:55:49
TRACK 03 AUDIO
TITLE “Little Eternity”
PERFORMER “Ingo Boss”
FLAGS DCP
INDEX 00 16:00:45
INDEX 01 16:03:41
TRACK 04 AUDIO
TITLE “Acid in my Fridge (Tobi Neumann Rmx)”
PERFORMER “Dinky”
FLAGS DCP
INDEX 00 20:53:69
INDEX 01 20:56:47[/i:30d9130ee6]

Hier kun je dus gewoon zelf je eigen dingen invullen en je zult zien dat het gewoon werkt.

Hier staat een hele handige handleiding daarvoor: http://forum.groovejunk.nl/showthread.php?t=75

Maar volgens mij moet het ook softwarematig kunnen.